The Void Il Vuoto (2017) 720p H264 italian English Ac3 5 1 sub ita MIRCrew torrent download

seeders: 792
leechers: 448
updated:
Added ago by robbyrs ***** in Movies
Torrent Downloaded 10 times.
Info Hash: 165D510EBD52E057AF03509E2A33CF16065F4C12


Torrent Files

The Void - Il Vuoto (2017) 720p H264 italian English Ac3-5 1 sub ita MIRCrew (Size: 1.8 GB)
  The Void - Il Vuoto (2017) 720p H264 italian English Ac3-5 1 sub ita MIRCrew 1.8 GB

Torrent Description



The Void - Il Vuoto (2017).720p.H264.italian.English.Ac3-5.1.sub.ita.MIRCrew


NO FOUND ONLY ORIGINAL RELEASE



My release is always in double track audio italian and Original audio
for select it use VLC or dvd player home
not use wmp

The Void - Il Vuoto (2017)

Quality MIRCrew on HD 720p da 1.8 gb







GENERE: Horror
ANNO: 2016
REGIA: Jeremy Gillespie, Steven Kostanski
PAESE: Canada
DURATA: 90 Min



Ellen Wong, Kathleen Munroe, Kenneth Welsh, Stephanie Belding, Aaron Poole, Art Hindle



Quando incontra un uomo ricoperto di sangue in una strada buia e isolata, un agente di polizia lo conduce nell'ospedale più vicino. In breve staff e pazienti della struttura saranno intrappolati da una minaccia terribile e sovrannaturale, e costretti a un viaggio infernale nelle profondità...................



Shortly after delivering a patient to an understaffed hospital, a police officer experiences strange and violent occurrences seemingly linked to a group of mysterious hooded figures.









[spoiler]
General
Unique ID : 131656881956688156313977007997087342842 (0x630C3171434AF747FE2C61DD73DF60FA)
Complete name : The Void - Il Vuoto (2017).720p.h264.ita.eng.sub.ita-MIRCrew\The Void - Il Vuoto (2017).720p.h264.ita.eng.sub.ita-MIRCrew.mkv
Format : Matroska
Format version : Version 2
File size : 1.77 GiB
Duration : 1h 30mn
Overall bit rate : 2 797 Kbps
Movie name : MIRCrew
Encoded date : UTC 2018-04-14 09:42:05
Writing application : Lavf54.63.100
Writing library : Lavf54.63.100
COPYRIGHT : robbyrs - Il Corsaronero

Video
ID : 1
Format : AVC
Format/Info : Advanced Video Codec
Format profile : [email protected]
Format settings, CABAC : Yes
Format settings, ReFrames : 2 frames
Codec ID : V_MPEG4/ISO/AVC
Duration : 1h 30mn
Bit rate : 1 900 Kbps
Width : 1 280 pixels
Height : 528 pixels
Display aspect ratio : 2.40:1
Frame rate mode : Variable
Frame rate : 24.000 fps
Color space : YUV
Chroma subsampling : 4:2:0
Bit depth : 8 bits
Scan type : Progressive
Bits/(Pixel*Frame) : 0.117
Stream size : 1.17 GiB (66%)
Writing library : x264 core 130 r2273
Encoding settings : cabac=1 / ref=2 / deblock=1:0:0 / analyse=0x1:0x131 / me=hex / subme=7 / psy=1 / psy_rd=1.00:0.00 / mixed_ref=0 / me_range=16 / chroma_me=1 / trellis=1 / 8x8dct=0 / cqm=0 / deadzone=21,11 / fast_pskip=1 / chroma_qp_offset=-2 / threads=3 / lookahead_threads=1 / sliced_threads=0 / nr=0 / decimate=1 / interlaced=0 / bluray_compat=0 / constrained_intra=0 / bframes=3 / b_pyramid=0 / b_adapt=1 / b_bias=0 / direct=3 / weightb=1 / open_gop=0 / weightp=2 / keyint=240 / keyint_min=24 / scenecut=40 / intra_refresh=0 / rc_lookahead=40 / rc=abr / mbtree=1 / bitrate=1900 / ratetol=1.0 / qcomp=0.60 / qpmin=10 / qpmax=69 / qpstep=4 / vbv_maxrate=24000 / vbv_bufsize=24000 / nal_hrd=none / ip_ratio=1.40 / aq=1:1.00
Language : Italian
Default : Yes
Forced : No
DURATION : 01:30:32.875000000
NUMBER_OF_FRAMES : 130389
NUMBER_OF_BYTES : 6752701516
_STATISTICS_WRITING_APP : mkvmerge v9.5.0 ('Quiet Fire') 64bit
_STATISTICS_WRITING_DATE_UTC : 2018-04-05 20:36:25
_STATISTICS_TAGS : BPS DURATION NUMBER_OF_FRAMES NUMBER_OF_BYTES

Audio #1
ID : 2
Format : AC-3
Format/Info : Audio Coding 3
Mode extension : CM (complete main)
Codec ID : A_AC3
Duration : 1h 30mn
Bit rate mode : Constant
Bit rate : 448 Kbps
Channel(s) : 6 channels
Channel positions : Front: L C R, Side: L R, LFE
Sampling rate : 48.0 KHz
Bit depth : 16 bits
Compression mode : Lossy
Delay relative to video : 16s 784ms
Stream size : 290 MiB (16%)
Title : AC3 ITA
Language : Italian
Default : No
Forced : No
DURATION : 01:30:15.840000000
NUMBER_OF_FRAMES : 169245
NUMBER_OF_BYTES : 433267200
_STATISTICS_WRITING_APP : mkvmerge v9.5.0 ('Quiet Fire') 64bit
_STATISTICS_WRITING_DATE_UTC : 2018-04-05 20:36:25
_STATISTICS_TAGS : BPS DURATION NUMBER_OF_FRAMES NUMBER_OF_BYTES

Audio #2
ID : 3
Format : AC-3
Format/Info : Audio Coding 3
Mode extension : CM (complete main)
Codec ID : A_AC3
Duration : 1h 30mn
Bit rate mode : Constant
Bit rate : 448 Kbps
Channel(s) : 6 channels
Channel positions : Front: L C R, Side: L R, LFE
Sampling rate : 48.0 KHz
Bit depth : 16 bits
Compression mode : Lossy
Delay relative to video : 1mn 5s
Stream size : 290 MiB (16%)
Title : AC3 ENG
Language : English
Default : No
Forced : No
DURATION : 01:30:32.928000000
NUMBER_OF_FRAMES : 169779
NUMBER_OF_BYTES : 434634240
_STATISTICS_WRITING_APP : mkvmerge v9.5.0 ('Quiet Fire') 64bit
_STATISTICS_WRITING_DATE_UTC : 2018-04-05 20:36:25
_STATISTICS_TAGS : BPS DURATION NUMBER_OF_FRAMES NUMBER_OF_BYTES

Menu
00:00:00.000 : :00:00:00.000
00:07:05.342 : :00:07:05.342
00:14:28.201 : :00:14:28.201
00:20:13.838 : :00:20:13.838
00:29:27.099 : :00:29:27.099
00:39:02.590 : :00:39:02.590
00:50:56.804 : :00:50:56.804
00:59:52.756 : :00:59:52.756
01:08:53.129 : :01:08:53.129
01:16:19.950 : :01:16:19.950
01:22:27.706 : :01:22:27.706



[/spoiler]





Related Torrents

torrent name size age seed leech
10.2 GB 1 minute 277 398
175.5 MB 1 minute 386 422
8.6 GB 1 minute 113 311
6.4 GB 1 minute 174 372
JAVXXX-105
Posted by   Guest  in  Video
822.8 MB 7 minutes 86 414

Sharing Widget


Download torrent
1.8 GB
seeders:1214
leechers:386
The Void - Il Vuoto (2017) 720p H264 italian English Ac3-5 1 sub ita MIRCrew



To share this torrent use the code below and insert it into comments, status messages, forum posts or your signature.

Torrent: The Void - Il Vuoto (2017) 720p H264 italian English Ac3-5 1 sub ita MIRCrew

Comments

Latest Searches