Rampage 2018 720p NEW HDCAM X264 HQMic LLG torrent download

seeders: 31
leechers: 345
updated:
Added ago by LifeLongg ***** in Movies
Torrent Downloaded 10 times.
Info Hash: 8394C7DFB862E1E5B26007BBA8837EB2B44ACC5D


Torrent Files

Rampage 2018 720p NEW HDCAM X264 HQMic LLG (Size: 1.2 GB)
  Rampage 2018 720p NEW HDCAM X264 HQMic LLG 1.2 GB

Torrent Description







******************************Thumbnail:**********************



******************************Screenshots:********************

Screenshot 1

Screenshot 2

Screenshot 3

Screenshot 4

Screenshot 5

Screenshot 6

Screenshot 7

Screenshot 8

Screenshot 9

Screenshot 0

**************************************************************

Complete name : Rampage.2018.720p.NEW.HDCAM.X264.HQMic.LLG.mp4
Format : MPEG-4
Format profile : Base Media
Codec ID : isom (isom/iso2/avc1/mp41)
File size : 1.14 GiB
Duration : 1 h 40 min
Overall bit rate : 1 636 kb/s
Writing application : Lavf57.56.101

Video
ID : 1
Format : AVC
Format/Info : Advanced Video Codec
Format profile : [email protected]
Format settings : CABAC / 4 Ref Frames
Format settings, CABAC : Yes
Format settings, RefFrames : 4 frames
Codec ID : avc1
Codec ID/Info : Advanced Video Coding
Duration : 1 h 40 min
Bit rate : 1 500 kb/s
Width : 1 280 pixels
Height : 608 pixels
Display aspect ratio : 2.105
Frame rate mode : Constant
Frame rate : 23.976 (23976/1000) FPS
Color space : YUV
Chroma subsampling : 4:2:0
Bit depth : 8 bits
Scan type : Progressive
Bits/(Pixel*Frame) : 0.080
Stream size : 1.05 GiB (92%)

Audio
ID : 2
Format : MPEG Audio
Format version : Version 1
Format profile : Layer 3
Format settings : Joint stereo / MS Stereo
Codec ID : mp4a-6B
Duration : 1 h 40 min
Bit rate mode : Constant
Bit rate : 128 kb/s
Channel(s) : 2 channels
Sampling rate : 44.1 kHz
Compression mode : Lossy
Stream size : 91.6 MiB (8%)
Writing library : LAME3.99.5
Default : Yes
Alternate group : 1



Related Torrents

torrent name size age seed leech
867.13 MB 1 minute 511 438
2.6 MB 2 minutes 352 371
3.2 GB 2 minutes 653 353
2.1 MB 2 minutes 759 71
5.0 GB 2 minutes 700 93

Sharing Widget


Download torrent
1.2 GB
seeders:1214
leechers:386
Rampage 2018 720p NEW HDCAM X264 HQMic LLG



To share this torrent use the code below and insert it into comments, status messages, forum posts or your signature.

Torrent: Rampage 2018 720p NEW HDCAM X264 HQMic LLG

Comments

Latest Searches